Quick Browse
Movies
TV shows
Music
Games
Applications
Anime
Other

Latest Articles

TorrentToday

Rugby Union World Cup - Match 45 SF1 - SA v NZ - 2015 10 24 - 720p x264


    Seeders : 0      Leechers : 1


Note :

Please Update (Trackers Info) Before Downloading Torrents to See Updated Seeders And Leechers for Batter Download Speed.

Trackers List

Tracker NameLast CheckStatusSeedersLeechers
udp://p4p.arenabg.com:13371 Year+success00
udp://torrent.gresille.org:80/announce1 Year+success00
udp://9.rarbg.to:2710/announce1 Year+success01
udp://inferno.demonoid.ooo:3389/announce1 Year+success00
udp://glotorrents.pw:6969/announce1 Year+success00
udp://tracker.trackerfix.com:80/announce1 Year+success00
udp://tracker.coppersurfer.tk:801 Year+success01
http://bigfoot1942.sektori.org:6969/announce1 Year+success00
http://tracker.trackerfix.com/announce1 Year+success00
udp://9.rarbg.me:2710/announce1 Year+success01
udp://open.demonii.com:1337/announce1 Year+success00




Torrent File Content (2 files)


RU.2015.RWC.M45.SF1.SA.v.NZ-2015.10.24-720p.x264
     RU.2015.RWC.M45.SF1.SA.v.NZ-2015.10.24-720p.x264.mp4 -
3.89 GB

     RU.2015.RWC.M45.SF1.SA.v.NZ-2015.10.24-720p.x264.nfo -
3.25 KB



Description



 							SPORT: Rugby World Cup - South Africa v New Zealand
On: itv HD
Date: Saturday 24th October 2015
Time: 15:00 to 18:30


John Inverdale presents live coverage of the first semi-final from Twickenham. Twenty years after the final at Ellis Park, Johannesburg, when Joel Stransky's drop goal gave South Africa victory against New Zealand, the two sides meet again. After suffering an embarrassing opening game defeat to Japan, South Africa have gone from strength to strength, but New Zealand were in devastating form in their quarter-final as they thrashed France 62-13. Studio guests are Sean Fitzpatrick, Francois Pienaar and Jonny Wilkinson, and commentary comes from Nick Mullins, Shane Williams and Lawrence Dallaglio.

image v image

General  Complete name :
RU.2015.RWC.M45.SF1.SA.v.NZ-2015.10.24-720p.x264.mp4  Format : MPEG-4  Format profile : Base Media / Version 2  Codec ID
: mp42  File size : 3.89 GiB  Duration : 3h 1mn  Overall bit rate mode : Variable  Overall bit rate : 3 074 Kbps   
Video  ID : 1  Format : AVC  Format/Info : Advanced Video Codec  Format profile : [email protected]  Format settings, CABAC :
Yes  Format settings, ReFrames : 5 frames  Codec ID : avc1  Codec ID/Info : Advanced Video Coding  Duration : 3h 1mn 
Bit rate : 2 910 Kbps  Width : 1 280 pixels  Height : 720 pixels  Display aspect ratio : 16:9  Frame rate mode :
Constant  Frame rate : 25.000 fps  Color space : YUV  Chroma subsampling : 4:2:0  Bit depth : 8 bits  Scan type :
Progressive  Bits/(Pixel*Frame) : 0.126  Stream size : 3.68 GiB (95%)  Writing library : x264 core 130 r2273 b3065e6 
Encoding settings : cabac=1 / ref=5 / deblock=1:0:0 /  yse=0x3:0x113 / me=umh / subme=8 / psy=1 / psy_rd=1.00:0.00 /
mixed_ref=1 / me_range=16 / chroma_me=1 / trellis=1 / 8x8dct=1 / cqm=0 / deadzone=21,11 / fast_pskip=1 /
chroma_qp_offset=-2 / threads=24 / lookahead_threads=4 / sliced_threads=0 / nr=0 / decimate=1 / interlaced=0 /
bluray_compat=0 / constrained_intra=0 / bframes=3 / b_pyramid=2 / b_adapt=2 / b_bias=0 / direct=3 / weightb=1 /
open_gop=0 / weightp=2 / keyint=250 / keyint_min=25 / scenecut=40 / intra_refresh=0 / rc_lookahead=50 / rc=crf /
mbtree=1 / crf=23.0 / qcomp=0.60 / qpmin=0 / qpmax=69 / qpstep=4 / ip_ratio=1.40 / aq=1:1.00    Audio  ID : 2  Format :
AAC  Format/Info : Advanced Audio Codec  Format profile : LC  Codec ID : 40  Duration : 3h 1mn  Bit rate mode : Variable
 Bit rate : 160 Kbps  Maximum bit rate : 314 Kbps  Channel(s) : 2 channels  Channel positions : Front: L R  Sampling
rate : 48.0 KHz  Compression mode : Lossy  Stream size : 207 MiB (5%)  Title : Stereo  Language : English

Related torrents

Torrent NameAddedSizeSeedLeechHealth
1 Year+ - in TV shows1.77 GB01
1 Year+ - in TV shows966.4 MB464
1 Year+ - in TV shows1012.81 MB10
1 Year+ - in TV shows1.23 GB00
1 Year+ - in TV shows1.11 GB00



Comments (0 Comments)




Latest Searches