Quick Browse
Movies
TV shows
Music
Games
Applications
Anime
Other

Latest Articles


LimeTorrents

Verified torrent Under an Arctic Sky 2017 720p WEB-DL x264 ESub


    Seeders : 6      Leechers : 2


Note :

Please Update (Trackers Info) Before Downloading Torrents to See Updated Seeders And Leechers for Batter Download Speed.

Trackers List

Tracker NameLast CheckStatusSeedersLeechers
http://tracker.opentrackr.org/announce3 months agosuccess61
udp://tracker.coppersurfer.tk:6969/announce3 months agosuccess61
udp://tracker.pirateparty.gr:6969/announce3 months agosuccess61
udp://tracker.opentrackr.org:1337/announce3 months agosuccess61
udp://9.rarbg.com:2770/announce3 months agosuccess51
udp://9.rarbg.me:2710/announce3 months agosuccess51
udp://inferno.demonoid.pw:3391/announce3 months agosuccess51
udp://tracker.leechers-paradise.org:6969/announce3 months agosuccess51
udp://public.popcorn-tracker.org:6969/announce3 months agosuccess52
http://public.popcorn-tracker.org:6969/announce3 months agosuccess52
udp://9.rarbg.to:2710/announce3 months agosuccess51
udp://tracker.vanitycore.co:6969/announce3 months agosuccess52
udp://eddie4.nl:6969/announce3 months agosuccess51
http://tracker.vanitycore.co:6969/announce3 months agosuccess52
udp://ipv4.tracker.harry.lu:80/announce3 months agosuccess41
http://tracker.internetwarriors.net:1337/announce3 months agosuccess21
udp://mgtracker.org:6969/announce3 months agosuccess00
udp://tracker.x4w.co:6969/announce3 months agosuccess00
udp://tracker.sktorrent.net:6969/announce3 months agosuccess00
udp://tracker.mgtracker.org:2710/announce3 months agosuccess00
udp://tracker.zer0day.to:1337/announce3 months agosuccess00
udp://asnet.pw:2710/announce3 months agosuccess00
udp://tracker.pomf.se:80/announce3 months agosuccess00
http://tracker.trackerfix.com/announce3 months agosuccess00
http://bigfoot1942.sektori.org:6969/announce3 months agosuccess00
http://announce.torrentsmd.com:6969/announce3 months agosuccess00
udp://castradio.net:6969/announce3 months agosuccess00
udp://explodie.org:6969/announce3 months agosuccess00
http://tracker2.wasabii.com.tw:6969/announce3 months agosuccess00
udp://tracker.internetwarriors.net:1337/announce3 months agosuccess00
udp://tracker.trackerfix.com:80/announce3 months agosuccess00
udp://glotorrents.pw:6969/announce3 months agosuccess00
udp://tracker4.piratux.com:6969/announce3 months agosuccess00
udp://tracker.blackunicorn.xyz:6969/announce3 months agosuccess00
udp://p4p.arenabg.ch:1337/announce3 months agosuccess00
udp://tracker.mg64.net:6881/announce3 months agosuccess00




Torrent File Content (1 file)


Under an Arctic Sky 2017 720p WEB-DL x264 ESub
     Under an Arctic Sky 2017 720p WEB-DL x264 ESub.mkv -
540.42 MB



Description




[url=https://pichub.site/image/fbKmT]
https://pichub.site/images/2018/03/18/MV5BMzJhYTkwMDktMTkyZi00ZGIwLThiODQtZTFlZmVkNzAwZjMzXkEyXkFqcGdeQXVyNzQ5NjY0MzA._V1_QL50_SY1000_SX675_AL_.md.jpg
[/url]


General
Format : Matroska
Format version : Version 4 / Version 2
File size : 540 MiB
Duration : 40 min 20 s
Overall bit rate : 1 873 kb/s

Video
ID : 1
Format : AVC
Format/Info : Advanced Video Codec
Format profile : [email protected]
Format settings : CABAC / 4 Ref Frames
Format settings, CABAC : Yes
Format settings, RefFrames : 4 frames
Codec ID : V_MPEG4/ISO/AVC
Duration : 40 min 20 s
Bit rate : 1 800 kb/s
Width : 1 280 pixels
Height : 720 pixels
Display aspect ratio : 16:9
Frame rate mode : Constant
Frame rate : 23.976 (24000/1001) FPS
Color space : YUV
Chroma subsampling : 4:2:0
Bit depth : 8 bits
Scan type : Progressive
Bits/(Pixel*Frame) : 0.081
Stream size : 503 MiB (93%)
Writing library : x264 core 148 r2708 86b7198
Default : Yes
Forced : No

Audio
ID : 2
Format : AAC
Format/Info : Advanced Audio Codec
Format profile : HE-AAC / LC
Format settings : Explicit
Codec ID : A_AAC-2
Duration : 40 min 20 s
Bit rate : 127 kb/s
Channel(s) : 2 channels
Channel positions : Front: L R
Sampling rate : 48.0 kHz / 24.0 kHz
Frame rate : 23.438 FPS (1024 SPF)
Compression mode : Lossy
Stream size : 36.6 MiB (7%)
Language : English
Default : Yes
Forced : No

Text
ID : 3
Format : UTF-8
Codec ID : S_TEXT/UTF8
Codec ID/Info : UTF-8 Plain Text
Duration : 39 min 49 s
Bit rate : 66 b/s
Count of elements : 574
Stream size : 19.3 KiB (0%)
Language : English
Default : No
Forced : No






[url=https://pichub.site/image/fbgsN]
https://pichub.site/images/2018/03/18/00_01_12.md.jpg
[/url]
[url=https://pichub.site/image/fbuaD]
https://pichub.site/images/2018/03/18/00_05_14.md.jpg
[/url]
[url=https://pichub.site/image/fbGzZ]
https://pichub.site/images/2018/03/18/00_11_17.md.jpg
[/url]
[url=https://pichub.site/image/fbN5g]
https://pichub.site/images/2018/03/18/00_27_25.md.jpg
[/url]
[url=https://pichub.site/image/fbxwX]
https://pichub.site/images/2018/03/18/00_28_14.md.jpg
[/url]
[url=https://pichub.site/image/fbUqI]
https://pichub.site/images/2018/03/18/00_36_42.md.jpg
[/url]


Related torrents

Torrent NameAddedSizeSeedLeechHealth
3 months ago - in Movies2.97 GB00
Verified torrent
5 months ago - in Movies829.67 MB01
1 Year+ - in Other98.23 MB00
1 Year+ - in Other65.25 MB00
1 Year+ - in Other2.65 MB20



Comments (0 Comments)




Latest Searches